#TITLE:Without You;
#SUBTITLE:;
#ARTIST:TMY;
#TITLETRANSLIT:;
#SUBTITLETRANSLIT:;
#ARTISTTRANSLIT:;
#CREDIT:;
#BANNER:without you-logo.jpg;
#BACKGROUND:without you.jpg;
#LYRICSPATH:;
#CDTITLE:Lan.png;
#MUSIC:Without You.mp3;
#OFFSET:-0.020;
#SAMPLESTART:100.000;
#SAMPLELENGTH:12.000;
#SELECTABLE:YES;
#BPMS:0.000=134.010,98.000=53.604,98.500=268.020,100.000=134.010,228.000=268.020,356.000=134.010,362.000=67.005,362.500=201.015,364.000=134.010;
#STOPS:;
#BGCHANGES:;
// cache tags:
#FIRSTBEAT:4.000;
#LASTBEAT:463.000;
#SONGFILENAME:Songs/SDO/Without You/Without You.sm;
#HASMUSIC:1;
#HASBANNER:1;
#MUSICLENGTH:178.929;
// end cache tags

//---------------dance-single - sky----------------
#NOTES:
     dance-single:
     sky:
     Hard:
     9:
     0.762,1.000,1.000,0.056,0.000,677.000,232.000,10.000,0.000,35.000:

0000
0000
0000
0000
,
1001
0000
0000
1000
0100
0010
0001
1000
,
1001
0000
0000
0000
0010
0100
1000
0000
,
1010
0000
0000
1000
0100
0010
0001
1000
,
0101
0000
0000
0000
0001
0010
0100
0000
,
1001
0000
0000
0001
0010
0100
1000
0001
,
1001
0000
0000
0000
0000
1010
0000
0000
,
1101
0000
0000
0001
0010
0100
1000
0001
,
1111
0110
0000
0110
0001
0010
0100
1001
,
1010
0000
0000
0000
1110
0010
0001
1000
,
1000
0000
0000
0000
0101
0010
0001
0100
,
1001
0000
0000
1100
0110
0011
1100
0011
,
1101
0000
0000
0000
0110
1000
0010
1101
,
1100
0000
0000
1000
0101
0010
0001
1100
,
0101
1000
0010
0000
1000
0100
0010
0110
,
1001
0000
0100
0001
0010
1000
0000
1010
,
1010
1000
0100
0010
0001
0010
0100
1000
,
1011
1010
0110
1100
,
0101
0000
1010
0000
1000
0001
1000
0000
,
1011
1010
1100
0011
,
0101
0000
1010
0000
0100
0010
0100
0000
,
1000
0100
1000
0010
0001
0010
0000
1001
,
1001
0000
1000
0010
0001
0100
1000
0000
,
1011
1100
0011
1001
,
1221
0000
0000
0000
,
1331
0101
1010
0101
,
1001
0000
1010
0000
0001
1000
0001
0000
,
1001
0100
1010
0100
0011
0100
1100
0010
,
1001
0010
1001
0010
1000
0001
1000
0000
,
1101
1000
0100
0010
0110
0001
0100
1010
,
0011
1000
0010
0100
1000
0001
1000
0000
,
1011
0100
1010
0100
0011
0000
1001
1001
,
0111
1000
0100
0010
0001
1000
0100
0010
,
1001
0010
1001
0100
1001
0010
1001
0010
,
0110
0100
1001
0010
1001
0100
1001
0010
,
1001
0000
0110
0000
1001
0110
2002
0000
,
0000
0000
3003
0000
,
1001
0100
0001
0100
1000
0100
0010
0001
,
1000
0100
1000
1111
0000
0000
0010
0001
,
1100
0011
1100
0011
,
1000
0100
0010
0000
0011
0011
0011
0000
,
1000
0100
1000
0001
0100
1000
0001
0100
,
1001
1010
0101
1010
0011
1100
1010
0000
,
1000
0001
0010
0100
0010
1000
0001
0100
,
0101
1100
0011
1100
0011
0101
0110
0000
,
1010
0101
0110
1001
0110
1010
0101
0000
,
1011
0000
1101
0000
0001
1000
0001
0000
,
0111
0000
1010
0000
,
0011
0000
1001
0000
,
1000
0100
1000
0001
0100
1000
0001
0100
,
1011
1010
0101
1010
0011
1100
1010
0000
,
0100
0100
0001
1000
0100
0001
1000
0010
,
1011
1101
1101
1101
,
0100
0001
1000
0001
0100
0001
1000
0100
,
1001
0000
0101
0000
0101
1000
0011
0000
,
1001
0000
0220
0000
,
1331
0101
1001
0110
,
1010
0100
0001
1000
0100
0010
0001
0100
,
1000
0100
0010
0001
1001
0000
0000
0000
,
0100
1000
0001
0100
0001
1000
0001
0100
,
0001
0100
0010
1000
1001
0000
0000
0000
,
1010
0001
0100
0010
1000
0010
0001
0100
,
1000
0010
0001
0100
1010
0000
0000
0000
,
0101
0010
0001
1000
0010
0100
0001
0100
,
0010
0001
1000
0010
0101
0000
0000
0000
,
0101
1000
0001
1000
0010
0100
0001
0100
,
0010
0001
1000
0010
0101
0000
0000
0000
,
0011
0100
0010
1000
0001
0100
0001
1000
,
0100
0001
1000
0010
1100
0000
0000
0000
,
0110
1000
0100
0000
0010
1000
0010
0000
,
1001
0000
0000
0000
0000
1100
0101
0010
,
0101
1000
0001
0100
1000
0100
0001
0100
,
0010
0001
1000
0010
0101
0000
0000
0000
,
0101
1000
0001
1000
0001
0010
0100
1000
,
0010
0001
1000
0010
0101
0000
0000
0000
,
0011
0100
0010
1000
0010
0001
0010
0100
,
1000
0010
1000
0001
0101
0000
0000
0000
,
0101
0001
0100
0001
1000
0010
1011
0000
,
1010
1001
0101
1001
,
0011
0100
0010
1000
0010
0001
0010
0100
,
1000
0010
1000
0001
0101
0000
0000
0000
,
1001
0010
0100
0001
1000
0001
0010
1000
,
0100
0010
0100
0001
0101
0000
1010
0000
,
0011
0100
0010
1000
0010
0001
0010
0100
,
1000
0010
1000
0010
1001
0000
0000
0000
,
1001
0100
0010
1000
0010
0001
0010
0100
,
1000
0100
0010
0001
1100
0000
0000
0000
,
1001
0100
0010
1000
0010
0001
0010
0100
,
1000
0100
0010
0001
0010
0100
1000
0000
,
0110
0000
0000
0000
1001
0000
0000
0110
,
2112
0000
0000
0000
,
3113
0100
1000
0001
0100
1000
0001
0100
,
1011
0101
1100
1010
,
0101
0100
1000
0001
0100
1000
0001
0100
,
1011
1010
0101
1010
0011
1100
1010
0000
,
1010
0101
0110
1001
0110
1010
0101
0000
,
1011
0000
1101
0000
0001
1000
0001
0000
,
0111
0000
1010
0000
,
0011
0000
1001
0000
,
1100
0100
1000
0001
0100
1000
0001
0100
,
1011
0000
1100
0000
,
0110
0010
0100
1000
0010
0100
1000
0010
,
1101
1010
0110
0011
,
1000
0010
0100
1000
0001
0100
1000
0010
,
1110
0000
1001
0000
0001
1000
0001
0000
,
1100
0000
0101
0000
,
1100
0010
0001
0010
0100
1000
0100
0010
,
1101
0000
0100
0010
0001
0010
0100
0000
,
1001
0100
0010
0100
1000
0100
0010
0001
,
1010
0100
1000
0100
0010
0001
0010
0001
,
1001
0100
0010
0100
0010
0100
1000
0100
,
1001
0100
1000
0100
0010
0001
0010
0001
,
1001
0100
0010
0100
0010
0100
1000
0100
,
1001
0100
1000
0100
0010
0001
0010
0001
,
1001
0100
0010
0100
0010
0100
1000
0100
,
2002
0000
0000
3003
;
